Nvdec Vs Cuvid

264 인코딩이 가능. If you are using another Linux distribution make sure that the NVIDIA display driver is at least r352. I see that the latest versions of ffmpeg require some slight changes so I used this on the new PC:. FFMPEG with NVIDIA Acceleration on Ubuntu Linux DU-07857-001_v01 | 2 INITIAL SETUP These instructions assume a fresh install of x86_64 (64bit) Ubuntu 14. mp4) vs Playable File(outputFile. 264 hardware decoder in ffmpeg). The problem is bad codec/poor compression. INTRODUCTION This NVIDIA Video Decoder (NVCUVID) API allows developers access the video decoding features of NVIDIA graphics hardware. 265 Encoding: MediaCoder vs. 車用品·バイク用品 >> 車用品 >> パーツ >> 外装·エアロパーツ >> オーバーフェンダー。オーバーフェンダー 05-15 Tacoma Bushwacker 31052-02ポケットスタイルフェンダーフレアにフィット Fits 05-15 Tacoma Bushwacker 31052-02 Pocket Style Fender Flares. NVDEC/CUVID NVDEC offers decoders for H. We utilize FFmpeg only for data parsing and for data packing to MP4 container Video decoding is done via NVIDIA NVDEC (on GPU) All image format transforms are done on GPU OBS on Linux supports using the Nvidia NVENC for H. mp4 -f mp4 -vcodec h264 -vf scale=out_color_matrix=bt709 -color_primaries bt709 -color_trc bt709 -colorspace bt709 -b:v 5703k -acodec aac -b:a. HEVC's main advantage over H. -----Hi folks, i would like to introduce my LAV CUVID Decoder. It should be able to decode h265 10bit. I want to take this opportunity to thank Nvidia for their highly competent and responsive support. If I add a 1050 to my rig, but still use the 980 to drive the display, can I use the 1050 to do the hevc decoding on what is being sent to the 980 display, or would the 1050 hevc decoding only work on what is physically plugged into the 1050?. but now i am trying for Desktop Nvidia GPU encoding using gstreamer. What I'm asking is that the closed source Plex codebase is changed so that it will use the "-hwaccel nvdec" option if it finds the "cuda" string when it queries ffmpeg with "ffmpeg -hwaccels". I'm on Windows 10 pro with a GeForce 1070 Ti and latest 436. GPU) to accelerate decoding of video streams depending on the video codec, graphic card model and operating system. 00, start: 0. Encoding is all about compressing images. NVDEC / CUVID. -b:V:0 20M saying to use bitrate of 20Mbit/s as an upper limit. Level-2 vs. Tak toto bol vycuc. For a quick refresher, the Ryzen 5 1500X offers four cores and eight threads for $189, while the Ryzen 5 1600X offers six cores and 12 threads for $249. Window编译ffmpeg主要有下面三种方式. 5x and a total conversion time of 4:41 (minutes). CPU) of some of the most computationally heavy. 4 A MinGW-w64 Prebuilt Toolchain for Linux-32Bits Targetting Win32 (Posix Thread). 全套编解码器仅在Pascal硬件上可用,它增加了VP9和10位支持。关于NVENC缺少ffnvcodec的说明也适用于NVDEC。. I have a 980 GTX driving a 4k 60hz display. CUVID offers decoders for H264, HEVC, MJPEG, mpeg1/2/4, vp8/9, vc1. In combination with NVENC, it offers full hardware transcoding. If you want to monitor NVENC utilization on your gpu card, GPU-Z tool is recommended for Windows. tab to enable it. Ffmpeg nvidia. I've played with nvdec also, and found that it's better to use -filter ( ffmpeg documentation says it's a "per-stream filtering option" ) instead of -vf or -af aliases as those aliases touch "all streams of video or audio". I've found that some options is not good. 拷贝 msys64\mingw64\bin\tclsh. AMD also offers lower-priced variants of. In combination with nvenc it offers full hardware transcoding. ffmpeg -hwaccel cuvid -i input -c:v hevc_nvenc -preset slow -rc vbr_hq -b:v 4M -c:a aac output Running this on my test file I get fps=204, speed=8. The SDK consists of two hardware acceleration interfaces: NVENCODE API for video encode acceleration We utilize FFmpeg only for data parsing and for data packing to MP4 container Video decoding is done via NVIDIA NVDEC (on GPU) All image format transforms are done on GPU r/ffmpeg: FFmpeg is the leading multimedia framework, able to decode. NVIDIA Video Decoder (NVCUVID) Interface DA-05614-001_v8. Introduction. php on line 143. Not only can DXVA2 be used for playback acceleration, it can be used to help with parts of the video recording process. X-Acceleration Transcoder PRO is a ffmpeg based hardware acceleartion product for IPTV live X-Acceleration Transcoder PRO supports Intel QuickSync and Nvidia CUVID/NVENC so far. 0 | 4 Chapter 3. CUVID offers decoders for H264, HEVC, MJPEG, mpeg1/2/4, vp8/9, vc1. | 6 The user also determines various properties of the output that the decoder is to generate: 1. Codec support varies by hardware. Covid-19 definition, a potentially severe respiratory illness caused by a coronavirus and characterized by fever, coughing, and shortness of breath. FFmpeg supports hardware accelerated decoding and encoding via the h264_cuvid, hevc_cuvid and h264_nvenc. Maximum number of output surfaces. But cuda-copy and nvdec-copy, work E. With decoding/encoding offloaded, the graphics engine and the CPU are free for other operations. X264: Which Encoder is the Best? Gaming. At this point, it would be imperative to mention that decoders have. ja hetihän tuo alkoi toimia. 1 is the best version yet, bringing powerful and simple video editing to the open-source world!. ffm Format mpeg VideoFrameRate 25 #VideoIntraOnly VideoBitRate 4096 VideoBufferSize 4096 VideoSize. CUVID in QMPlay2 16. Ffmpeg nvidia Ffmpeg nvidia. Jellyfin supports hardware acceleration (HWA) of video encoding/decoding using FFMpeg. ffmpeg -hwaccel cuvid -i input -c:v hevc_nvenc -preset slow -rc vbr_hq -b:v 4M -c:a aac output Running this on my test file I get fps=204, speed=8. exe 改名 glink. G:\Downloads\youtube-dl>ffmpeg -i "Rick Stein's Long Weekends - Vienna. ie, the maximum h265 horizontal resolution is 8192 on a GP10x, 4096 on a GP100 or less, and unsupported on any architecture less than GM206. The full set of codecs being available only on Pascal hardware, which adds VP9 and 10. They go out advertising the "deep learning" capabilities of their Tegra chip and whatnot and then use some garbage upscaling for video content. If you are using another Linux distribution make sure that the NVIDIA display driver is at least r352. GeForce GTX 650. Joint statement from the Saskatchewan Health Authority and the Hutterian Safety Council The S askatchewan Health Authority (SHA) and the Hutterian Safety Council (HSC) are working collaboratively to help guide Hutterite communities through the COVID-19 pandemic. Codec support varies by hardware. mp4 他のコーデックを使う. Code: Alles auswählen frame=137883 fps=164 q=14. FFmpeg and its photosensitivity filter are not making any medical claims. Release Notes The Release Notes for the CUDA Toolkit. From version 5. Once it works in windows maybe we could try that? @buers what version of ffmpeg are you running? I tried to identify further differences between HD and SD streams. CUVID offers decoders for H. Output frame size 3. More than 90% of built packages are built/linked staticaly (--enable-static=yes--enable-shared=no); Both flags --enable-shared and --enable-static are used for GCC but we will try to build only static packages. Technology. We can use nvdec to replace cuvid Now, we can see that we have already put the transcoding work to GPU and reduced the CPU usage to 2%. NVIDIA VIDEO DECODER (NVDEC) INTERFACE PG-08085-001_v07 | 10 information about frame size, flags denoting whether it's a field or a frame, bottom or top field, etc. Other than being a mainstay in computational workloads the V100 offers enhanced hardware-based encoding/decoding (NVENC/NVDEC). 1713fec 2018-11-26 eisneinechse More adjustments to enable hardware decode with nvdec/cuvid e7f2494 2018-11-26 eisneinechse First changes to make hardware accelerated DECODE work with decoders other than vaapi. - 1713fec 2018-11-26 eisneinechse More adjustments to enable hardware decode with nvdec/cuvid - e7f2494 2018-11-26 eisneinechse First changes to make hardware accelerated DECODE work with decoders other than vaapi. com/5m53/r2qv. 01 uses OpenGL2 for video output, VDPAU does not (I want to do it in future). A little bash script that does the job for me, for your consideration #!/bin/bash echo 'HTTPPort 8090 HTTPBindAddress 0. It is a DirectShow Video Decoder utilizing the NVIDIA hardware decoder engine through the CUDA Video Decoding API ("CUVID"). CUVID offers decoders for H. Up to 8K video is supported with Pascal while Maxwell is limited to 4K. exe or Kodi) that doesn't do transcoding. Both will be running on about the best I can find or get for them, within. Hi Carl Eugen, On Tue, 6 Nov 2018 at 14:56, Carl Eugen Hoyos <[hidden email]> wrote: > 2018-11-06 11:32 GMT+01:00, Roman Gorelik <[hidden email]>: > > > Can someone explain please what is the difference between hwaccels > > cuda and cuvid? Which one should be used in which cases? > > Adding to the answer: Using FFmpeg's parser and not Nvidia's can > help with unusual samples. 264, HEVC, MJPEG, MPEG-1/2/4, VP8/VP9, VC-1. com: State: New: Headers: show. madVR is a DirectShow video renderer used by hundreds of thousands of home theater enthusiasts around the world. FFmpeg supports hardware accelerated decoding and encoding via the h264_cuvid, hevc_cuvid and h264_nvenc. Actual support depends on the GPU that is used. 740174 [+] INFO: Upscaled frames are being saved to: C:\Users\madne\AppData\Local\Temp\video2x\tmp5hyh4u30. The last entries on the site OpenShot Video Editor OpenShot Video Editor - Last entries With faster performance, huge optimizations with effects, and improved UTF-8 character support, OpenShot 2. Here's the guide for users who want to know NVIDIA hardware acceleration basics and get started with NVIDIA GPU acceleration. FFMPEG에서도 nvenc라는 이름으로 인코딩 기능을 지원한다. 22) 123 2018-12-22 今天无意中在gayhub发现个牛逼工程,全VS工程编译FFMPEG库,包括依赖库全是VS生成的,无需Mingw等Linux环境。 简单记录下过程,以防将来重装系统等情况,备忘。. It is a DirectShow Video Decoder utilizing the NVIDIA hardware decoder engine through the CUDA Video Decoding API ("CUVID"). That script will automatically process every file in your Input folder and it will make Output folder for the new files. Following is the dialog between myself and Nvidia that took place during the development of DGAVCDecNV. 0) that enables touchscreen control of the Ghost Trolling Motor from HDS LIVE, HDS Carbon and Elite Ti² now available. Tak toto bol vycuc. * NVIDIA 그래픽 가속을 이용한 H. NVDEC/CUVID NVDEC offers decoders for H. switch to h264_nvenc or h264_qsv if you have nvidia or intel gpu ffmpeg -hide_banner -list_devices true -f dshow -i dummy if you are using a DSLR, try. 264(avchd) nvenc编码:h. No as at that time I needed cuvid support urgently in a static build. GPU hardware accelerator engines for video decoding (referred to as NVDEC) and video encoding. 동영상을 hevc로 인코딩을 하고있습니다(아마 2cpu에서 1cpu는 저만 사용하지 않을까 싶네요)보급형이라 그런지 속도가 영 만족스럽지가 못하게 나옵니다 찾아보니 ffmpeg는 8코어가 넘어가면 제대로 지원을 하지 못한다 그러는데요코어수와 클럭중 어떤것이 더 중요할. but now i am trying for Desktop Nvidia GPU encoding using gstreamer. Maximum number of output surfaces. Figure 1 lists many of the codecs, format and features supported with current NVIDIA hardware. ffmpeg -hwaccel cuvid -i input -c:v hevc_nvenc -preset slow -rc vbr_hq -b:v 4M -c:a aac output Running this on my test file I get fps=204, speed=8. FFMpeg's playbook: Advanced encoding options with hardware-accelerated acceleration for both NVIDIA NVENC's and Intel's VAAPI-based hardware encoders in both ffmpeg and libav. CUDA Page 1: Core i7-2600K, Core i5-2500K, Core i5-2400, And Core i3-2100 Reviewed Page 2: Inside Of Sandy Bridge: Cores And Cache Page 3: The System Agent And Turbo Boost 2. H264 decoder wasm. 请注意,FFmpeg提供NVDEC和CUVID hwaccel。它们在帧中如何解码和转发在内存中有所不同。. 디코딩: 선택에 따라 소프트웨어 디코딩(cpu) vs 하드웨어 디코딩(gpu. CUVID, which is also called nvdec by Nvidia now, can be used for decoding on Windows and Linux. So I think the answer of @halfelf was wrong. 拡張 NVEnc 出力 (NVEnc. ", "Error De. 264 Encoding with FFMPEG-NVENC 0. Output frame size 3. With decoding/encoding offloaded, the graphics engine and the CPU are free for other operations. ffmpeg -hwaccel cuvid -i input -c:v hevc_nvenc -preset slow -rc vbr_hq -b:v 4M -c:a aac output Running this on my test file I get fps=204, speed=8. On Linux I have not had a single issue with either vdpau or cuvid and this seems like the perfect segway to talk about how to speed up x264/x265 encodes with nvdec. LAV CUVID will not be developed any further. 0) that enables touchscreen control of the Ghost Trolling Motor from HDS LIVE, HDS Carbon and Elite Ti² now available. Hi, I have also been experimenting with Nvidia NVENC. Now, NVIDIA is taking it upon itself to allow users with one of its GTX 10 series graphics cards (absent the 1050, at least for now) to enjoy some 4K Netflix and ch. GeForce ForceWare and GeForce Experience drivers are for NVIDIA Quadro and all GeForce based videocards. Nvenc ffmpeg Nvenc ffmpeg. results = self. Browse categories, post your questions, or just chat with other members. 264 (avchd) yuv 4:2:0. Free Software Sentry – watching and reporting maneuvers of those threatened by software freedom. Here are my results: h264 -> h264 works fine h265 8bit -> h264 works fine h265 10bit -> h265 video stops every 10 seconds and gives artifacts Ive got a 1050Ti. Note that FFmpeg offers both NVDEC and CUVID hwaccels. LAV CUVID will not be developed any further. so, i hope it support that function very well. Encode is already working for nvenc; nvidia driver 396 has to be installed for nvenc to work. Quiero añadir un logotipo a un vídeo con FFMPEG. In combination with nvenc it offers full hardware transcoding. Zobrazit celé vlákno Skok na další nový názor. mp4 他のコーデックを使う. NET Streaming Image Using Imag2Pipe Issue Originally Posted by Shohag_ifas 1. 2011/12/13 (火) コメントなし. 14 - afir audio filter - scale_cuda CUDA based video scale filter - librsvg support for svg rasterization - crossfeed audio filter - spec compliant VP9 muxing support in MP4 - remove the libnut muxer/demuxer wrappers - remove the libschroedinger encoder/decoder wrappers - surround audio filter. So I was doing some poking around to see why some of my videos were not utilizing the the Quadro P2000 I have installed on my Plex server. 000000, bitrate: 5132 kb/s Stream #0:0(und): Video: h264 (High) (avc3. If I add a 1050 to my rig, but still use the 980 to drive the display, can I use the 1050 to do the hevc decoding on what is being sent to the 980 display, or would the 1050 hevc decoding only work on what is physically plugged into the 1050?. Output frame size 3. Download Video Codec SDK 9. I see that the latest versions of ffmpeg require some slight changes so I used this on the new PC:. -b:V:0 20M saying to use bitrate of 20Mbit/s as an upper limit. cuvidを使うこともできるけれど、多分使うべき理由はない。 ffmpeg -hwaccel nvdec -i invideo. switch to h264_nvenc or h264_qsv if you have nvidia or intel gpu ffmpeg -hide_banner -list_devices true -f dshow -i dummy if you are using a DSLR, try. Stack Overflow Public questions and answers; Teams Private questions and answers for your team; Enterprise Private self-hosted questions and answers for your enterprise; Jobs Programming and related technical career opportunities. Radeon VDPAU Mesa 17. 1713fec 2018-11-26 eisneinechse More adjustments to enable hardware decode with nvdec/cuvid e7f2494 2018-11-26 eisneinechse First changes to make hardware accelerated DECODE work with decoders other than vaapi. ffmpeg -hwaccel cuvid -i input -c:v hevc_nvenc -preset slow -rc vbr_hq -b:v 4M -c:a aac output Running this on my test file I get fps=204, speed=8. Both will be running on about the best I can find or get for them, within. 15 or later is required' I wonder if this is a driver vs. CUDA Page 1: Core i7-2600K, Core i5-2500K, Core i5-2400, And Core i3-2100 Reviewed Page 2: Inside Of Sandy Bridge: Cores And Cache Page 3: The System Agent And Turbo Boost 2. Now, all you need is a reliable video converter with NVENC acceleration supported. The video decoder is not a typical. Listen to a recap of the top stories of the day from Electrek. DXVA2 and CUVID are the two decoders I am going to test out on this page. madVR is a DirectShow video renderer used by hundreds of thousands of home theater enthusiasts around the world. Codec support varies by hardware. 0 A MinGW-w64 Prebuilt Toolchain for Linux-32Bits Targetting Win32 (Posix Thread). If you want to monitor NVENC utilization on your gpu card, GPU-Z tool is recommended for Windows. Using ffmpeg directly seems to take up a lot more cpu, but spreads it well across all the cores. other stuff you might be using python for. 1407374883765241 drwxr-xr-x 0 root root 512 Sep 23 2017 boot. x264-r2969-d4099dd. 0 turbo and a company OCed to 4. Code: Alles auswählen frame=137883 fps=164 q=14. exe, 避免和 VC 的 link 程序冲突. 264 인코딩이 가능. World of Warships standalone-non steam-client still NOT updated (02/16/2020) 3 0. CUVID offers decoders for H. NVDEC / CUVID. Stack Overflow Public questions and answers; Teams Private questions and answers for your team; Enterprise Private self-hosted questions and answers for your enterprise; Jobs Programming and related technical career opportunities. 9 버전부터는 d3d11, nvdec 등 좀 더 다양해짐. Python read h264 python read h264. One of these interfaces is then used by end-user software, for example VLC media player or GStreamer, to access the PureVideo hardware and make use of it. I've found that some options is not good. | 6 The user also determines various properties of the output that the decoder is to generate: 1. Poznámka: ve starší verzi FFMPEG nebylo možno použít obecný dekodér nvdec, ale bylo potřeba použít cuvid dekodér parametrem -hwaccel cuvid a za něj uvést jméno dekodéru přes parametr c:v před vstupním souborem:. 264/hevc decoding is also supported, which would release more CPU time from video decoding. 5x and a total conversion time of 4:41 (minutes). 264 / AVC / MPEG-4 AVC / MPEG-4 part 10 (decoders: h264 h264_v4l2m2m h264_cuvid ) (encoders: libx264 libx264rgb h264_nvenc h264_v4l2m2m nvenc nvenc_h264 ) DEV. As it stands now any FFMpeg command I enter in cmd gives back the message ffmpeg is not recognized as an internal or external command, operable program or batch file. ffmpeg -hwaccel cuvid -i input -c:v hevc_nvenc -preset slow -rc vbr_hq -b:v 4M -c:a aac output Running this on my test file I get fps=204, speed=8. According to chapter 2 of the (woefully inadequate) manual, decoding limits are specified by GPU architecture. 0 turbo and a company OCed to 4. AMD also offers lower-priced variants of. This is release 2. 5x and a total conversion time of 4:41 (minutes). Codec support varies by hardware. I've been thinking about replacing CUVID with NVDEC in LAV, with built-in deinterlacing and either copy-back like today or interop with D3D11, so that it could be efficient like D3D11 native, just with deinterlacing, and potential 12-bit and maybe 4:4:4 support (the latter would likely need renderer support first). nvenc vs x264 对比(1) 6078 2018-10-11 最近这段工作频繁的接触编码器技术,产品的编码质量、码率和速度是最为关心指标。 x264是非常优秀的软件编码器,但是其编码速度适应不了产品对实时编码的要求,nvenc是英伟达在其GPU中内嵌的视频编码器,编码的速度在GTX1070ti上实际测试可以达到[email protected]的要求。. When you play a. It also supports grabbing and encoding in real time from a TV card. Window编译ffmpeg主要有下面三种方式. We can use nvdec to replace cuvid Now, we can see that we have already put the transcoding work to GPU and reduced the CPU usage to 2%. mpv has an OpenGL based video output that is capable of many features loved by videophiles, such as video scaling with popular high quality algorithms, color. 101 Duration: 00:59:05. Hello, After installing FFMpeg and creating the right path I cant seem to get it to work. 8 bit 10 bit 12 bit 8 bit 10 bit. Sample decode using CUVID which copies the frames to system memory in this case: ffmpeg -c:v h264_cuvid -i input output. 샤나에서는 DXVA2를 통해서만 가능했으나 4. switch to h264_nvenc or h264_qsv if you have nvidia or intel gpu ffmpeg -hide_banner -list_devices true -f dshow -i dummy if you are using a DSLR, try. 265 Encoding: MediaCoder vs. 1 is the best version yet, bringing powerful and simple video editing to the open-source world!. ffmpeg -hwaccel cuvid -i input -c:v hevc_nvenc -preset slow -rc vbr_hq -b:v 4M -c:a aac output Running this on my test file I get fps=204, speed=8. It is accompanied by NVENC for video encoding in Nvidia's Video Codec SDK. [FFmpeg-trac] #8713(ffmpeg:new): NVenc encodes broken? Now treble file size for exactly same commandline. 「nvdecはエンコード向きの速度が出ない」というのは何のことを言ってるんだろ? (Classic Rock) [Laserdisc] [16/48] John Lennon - Live in New York City - 1972, FLAC (image+. CUVID offers decoders for H. Hi Carl Eugen, On Tue, 6 Nov 2018 at 14:56, Carl Eugen Hoyos <[hidden email]> wrote: > 2018-11-06 11:32 GMT+01:00, Roman Gorelik <[hidden email]>: > > > Can someone explain please what is the difference between hwaccels > > cuda and cuvid? Which one should be used in which cases? > > Adding to the answer: Using FFmpeg's parser and not Nvidia's can > help with unusual samples. Posted by 11 months ago. but now i am trying for Desktop Nvidia GPU encoding using gstreamer. 22) 123 2018-12-22 今天无意中在gayhub发现个牛逼工程,全VS工程编译FFMPEG库,包括依赖库全是VS生成的,无需Mingw等Linux环境。 简单记录下过程,以防将来重装系统等情况,备忘。. GeForce GTX 650. FFplay is a very simple and portable media. 813 [DEBUG][58] [FFMPEG]: Conversion failed! It may play better with a real client (eg NextPVR. NVDEC / CUVID. G:\Downloads\youtube-dl>ffmpeg -i "Rick Stein's Long Weekends - Vienna. 2 i7-5960X. Viewed 71k times 29. Codec support varies by hardware (see the GPU compatibility table). CUVID offers decoders for H264, HEVC, MJPEG, mpeg1/2/4, vp8/9, vc1. FFMPEG with NVIDIA Acceleration on Ubuntu Linux DU-07857-001_v01 | 2 INITIAL SETUP These instructions assume a fresh install of x86_64 (64bit) Ubuntu 14. Nvenc drivers. I'm not sure why SD vs HD makes a difference. How to Encode HEVC: Utilizing Nvidia GPU Hardware Acceleration. Following is the dialog between myself and Nvidia that took place during the development of DGAVCDecNV. NVCUVENC for older video cards and drivers is deprecated and replaced by NVENC. The SDK consists of two hardware acceleration interfaces: NVENCODE API for video encode acceleration We utilize FFmpeg only for data parsing and for data packing to MP4 container Video decoding is done via NVIDIA NVDEC (on GPU) All image format transforms are done on GPU r/ffmpeg: FFmpeg is the leading multimedia framework, able to decode. They go out advertising the "deep learning" capabilities of their Tegra chip and whatnot and then use some garbage upscaling for video content. 264, HEVC, MJPEG, MPEG-1/2/4, VP8/VP9, VC-1. GeForce GTX 650. Ffmpeg nvidia - eo. nvenc vs x264 对比(2) 10-17 2531. Output surface format (currently only NV12 supported) 2. ie, the maximum h265 horizontal resolution is 8192 on a GP10x, 4096 on a GP100 or less, and unsupported on any architecture less than GM206. The full set of codecs being available only on Pascal hardware, which adds VP9 and 10. mpv is a video player and a fork of mplayer2 and MPlayer. Ok that helped!. diff --git a/configure b/configure index 01c3a1011d. so, i want to do hardware encoding on* desktop GPU* using Gstreamer. Codec support varies by hardware. The problem is bad codec/poor compression. CUVID offers decoders for H. 57 mPixels/s. In combination with nvenc it offers full hardware transcoding. exe -hwaccel cuvid -c:v h264_cuvid -f mpegts -i HD-h264. ; If cross-compiling mpv failed and and a DLL is. 最近这段工作频繁的接触编码器技术,产品的编码质量、码率和速度是最为关心指标。x264是非常优秀的软件编码器,但是其编码速度适应不了产品对实时编码的要求,nvenc是英伟达在其GPU中内嵌的视频编码器,编码的速度在GTX1070ti上实际测试可以达到[email protected]的要求。. NVIDIA VIDEO DECODER (NVDEC) INTERFACE PG-08085-001_v07 | 10 information about frame size, flags denoting whether it's a field or a frame, bottom or top field, etc. ffmpeg -hwaccel cuvid -i input -c:v hevc_nvenc -preset slow -rc vbr_hq -b:v 4M -c:a aac output Running this on my test file I get fps=204, speed=8. Encoding is all about compressing images. Now, all you need is a reliable video converter with NVENC acceleration supported. Fortunately there are ways to handle this (see below). 0 Media Player Adds Nvidia CUDA Support, Raspberry Pi Hardware Decoding Today, October 20, 2016, MPV developer Martin Herkt proudly announced the release of another maintenance update of the very popular MPV open-source and cross-platform media player software based on MPlayer. NVIDIA Video Decoder (NVCUVID) Interface DA-05614-001_v8. With QSV and CUVID, you're at the mercy of the vendor (at adding custom MFTs to handle such errors), and sometimes, they have bugs that can't be fixed due to hardware limitations. ffmpeg -codecs | sls cuvid (备注:sls是powershell的命令,类似于linux下的grep命令). ffmpeg -hwaccel cuvid -i input -c:v hevc_nvenc -preset slow -rc vbr_hq -b:v 4M -c:a aac output Running this on my test file I get fps=204, speed=8. I see that the latest versions of ffmpeg require some slight changes so I used this on the new PC:. Improving ping times. 264 (1920x1080) on i7-4770K 3. Face detection Data courtesy CompuBench. Tak toto bol vycuc. This is release 2. It is a DirectShow Video Decoder utilizing the NVIDIA hardware decoder engine through the CUDA Video Decoding API ("CUVID"). but now i am trying for Desktop Nvidia GPU encoding using gstreamer. They differ in how frames are decoded and forwarded in memory. (2019-01-04, 20:27) 8-BaLL Wrote: Honestly I really don't get why Nvidia doesn't "bake in" better upscaling/downscaling algorithms into the SoC or into their GPUs but rather use the biggest garbage upscaling technique, which is most likely bilinear. I have developed the gstreamer GPU encoding on Nvidia Jetson Tx2. 264  Encoding with FFMPEG-NVENC 0. windows 7 64bit / Visual studio 2010 / GTX 1060 환경에서 비디오코덱 SDK 다운을 받아서 설정을 하고 명령인수를 넣으 2010환경에서 프로젝트를 돌렸는데, 인코더가 돌지를 않습니다. Nvenc drivers. switch to h264_nvenc or h264_qsv if you have nvidia or intel gpu ffmpeg -hide_banner -list_devices true -f dshow -i dummy if you are using a DSLR, try. 拡張 NVEnc 出力 (NVEnc. I think its an issue with ffmpeg. Bitcoin mining Data courtesy CompuBench. Such build can used by any user as long as they have a newer version of the glibc than the verison that has been used for compiling. Encode is already working for nvenc; nvidia driver 396 has to be installed for nvenc to work. Limitations/problems: 10-bit HEVC - 2 bits lost (CUVID and QMPlay2 limitation), CUVID plays only yuv420p,. 264 / AVC / MPEG-4 AVC / MPEG-4 part 10 (decoders: h264 h264. Python read h264 python read h264. exe or Kodi) that doesn't do transcoding. Mars is a radioactive desert wasteland where factories and other forge world bits. NVDEC / CUVID. Level-3 Here is the final test of speed comparison using 3 levels of hardware acceleration. In any case, this frees the main processor (i. NVDEC Independent Hardware Encoder Function Rate control modes:1-pass, 2-pass Quality vs performance Look-ahead Efficient bit distribution across GOP; higher quality -hwaccel cuvid: Use end-to-end NVIDIA hardware acceleration h264_cuvid: Use NVCUVID/NVDECODE. Python comes with a package management system called pip. Hello everyone, I'll try to make this short. Introduction. 请注意,FFmpeg提供NVDEC和CUVID hwaccel。它们在帧中如何解码和转发在内存中有所不同。. 9 버전부터는 d3d11, nvdec 등 좀 더 다양해짐. 19: 235: 0: 1880. NVIDIA GPUs contain one or more hardware-based decoder and encoder(s) (separate from the CUDA cores) which provides fully-accelerated hardware-based video decoding and encoding for several popular codecs. NVDEC / CUVID. but now i am trying for Desktop Nvidia GPU encoding using gstreamer. It shares some features with the former projects while introducing many more. x fps decode properly, failing with a green smudge for MPEG-4, VC-1 and H. NVEncC Supports cuvid decoding MPEG1 MPEG2 H. Phoronix: NVIDIA vs. Nvenc drivers. AMD also offers lower-priced variants of. My issue is the H264 streams will only be decoded via software, instead of using my nvidia card's nvdec/ncuvid. This seems to be a repost of an old post but let me just say this here once again because it still makes my blood boil: DISK SPACE IS CHEAP. ffmpeg -hwaccel cuvid -i input -c:v hevc_nvenc -preset slow -rc vbr_hq -b:v 4M -c:a aac output Running this on my test file I get fps=204, speed=8. The VLC media player framework can use your graphics chip (a. In combination with nvenc it offers full hardware transcoding. It's pretty clear that 397. 拡張 NVEnc 出力 (NVEnc. It shares some features with the former projects while introducing many more. php on line 143. Nvidia的硬解能力 (看下面的NVDEC Support Matrix) 或是用DXVAChecker檢查 (各廠牌顯卡通用,只檢查DX硬體加速) Lav filter內可選用 顯卡特有解碼 (不用GPU運算) Nvidia Cuvid IntelⓇ QuickSyncAMD? 不熟,沒看到選項 顯卡通用的硬體解碼 (要用GPU運算) DXVA(2)D3D11 DXVA和D3D11的選擇. その場合はfallback用に指定しているvaapiやvdpauのvoは必要. I had a few members of a greek forum to test their new RTX 2080 and RTX 2080 Ti in NVENC. nvenc vs x264 对比(2) 10-17 2531. 1 is the best version yet, bringing powerful and simple video editing to the open-source world!. cuvidを使うこともできるけれど、多分使うべき理由はない。 ffmpeg -hwaccel nvdec -i invideo. Up to now, only users with Intel's latest Kaby Lake architecture processors could enjoy 4K Netflix due to some strict DRM requirements. 아무키나 누르라더군요 usage : NvEncoder하고 파라미터 종류가 뜨는 것으로 보아. nvdec解码:mpeg-2 vc-1 h. I see that the latest versions of ffmpeg require some slight changes so I used this on the new PC:. Hardware Vs Software transcoding. Spleeter is built on python and hundreds of inter dependent python "packages", to the point where you need to manage python for spleeter specifically vs. In combination with NVENC, it offers full hardware transcoding. but now i am trying for Desktop Nvidia GPU encoding using gstreamer. Python read h264 python read h264. NVDEC/CUVID NVDEC offers decoders for H. 5x and a total conversion time of 4:41 (minutes). Spin, du nutzt zumindets kein AVX2 in dem Maße, dass es sich extrem zeigt; fehlt vielleicht ein setting? Ich würde nämlich sagen, da muss was hängen, denn mit dem Schritt von AVX auf AVX2. switch to h264_nvenc or h264_qsv if you have nvidia or intel gpu ffmpeg -hide_banner -list_devices true -f dshow -i dummy if you are using a DSLR, try. My ffmpeg 4. In combination with nvenc it offers full hardware transcoding. NVDEC / CUVID. 20+ FFmpeg Commands For Beginners. 0 - MinGW-w64 5. No as at that time I needed cuvid support urgently in a static build. 16607023625977317 drwxr-xr-x 0 root root 512 Sep 23 2017 bin. 아무키나 누르라더군요 usage : NvEncoder하고 파라미터 종류가 뜨는 것으로 보아. I'm not sure why SD vs HD makes a difference. LAV CUVID is DEAD. 264 (3840x2160) 30 fps video to HD H. mpv has an OpenGL based video output that is capable of many features loved by videophiles, such as video scaling with popular high quality algorithms, color. ffmpeg -hwaccel cuvid -i input -c:v hevc_nvenc -preset slow -rc vbr_hq -b:v 4M -c:a aac output Running this on my test file I get fps=204, speed=8. However, not everyone knows how and when these technologies actually work and what real value they add. Download Video Codec SDK 9. Python is a scripting computer language. Ffmpeg nvidia - eo. x264-r2969-d4099dd. Basically get anything with a HD530 or HD630. Up to now, only users with Intel's latest Kaby Lake architecture processors could enjoy 4K Netflix due to some strict DRM requirements. Codec support varies by hardware. 7黑帽编程——病毒篇(基础篇) 01-24 8万+ H. Such build can used by any user as long as they have a newer version of the glibc than the verison that has been used for compiling. 264/hevc decoding is also supported, which would release more CPU time from video decoding. This is based on top of an original patch by wm4. NVEncC Supports cuvid decoding MPEG1 MPEG2 H. CHIP # OF CHIPS # OF NVDEC /CHIP. Level-2 vs. As you know, when you're transcoding video from one compressed format to another, you first need to decode the video and then it gets fed to the encoder, and decoding can become a. 264, HEVC, MJPEG, MPEG-1/2/4, VP8/VP9, VC-1. com/feeds/blog/susheng http://www. - ffmppeg-advanced-playbook-nvenc-and-libav-and-vaapi. 5x and a total conversion time of 4:41 (minutes). Posted by 11 months ago. 265 (HEVC) VP8 VP9. I have developed the gstreamer GPU encoding on Nvidia Jetson Tx2. Level-2 vs. 265, VP8, VP9, VC1, and other formats. Intel(R) Xeon(R) CPU X5680 @ 3. I've played with nvdec also, and found that it's better to use -filter ( ffmpeg documentation says it's a "per-stream filtering option" ) instead of -vf or -af aliases as those aliases touch "all streams of video or audio". 개요 - 지포스 계열의 그래픽 카드 파워를 사용하여 H. If you want to monitor NVENC utilization on your gpu card, GPU-Z tool is recommended for Windows. ffmpeg -hwaccel cuvid -i input -c:v hevc_nvenc -preset slow -rc vbr_hq -b:v 4M -c:a aac output Running this on my test file I get fps=204, speed=8. 0 Lsize= 1662363kB time=01:35:50. 4 which is compatible with CUDA 9. 최근에 업데이트된 SDK에서는 Decoding 인 nvdec 도 지원하는 것으로 되어있지만 아쉽게. 16607023625977317 drwxr-xr-x 0 root root 512 Sep 23 2017 bin. 19: 235: 0: 1880. It shares some features with the former projects while introducing many more. 4, NVIDIA NVDEC/CUVID for h. So I was doing some poking around to see why some of my videos were not utilizing the the Quadro P2000 I have installed on my Plex server. Get the live quotes of the commodity futures market. conf, results in software decoding. Stack Overflow Public questions and answers; Teams Private questions and answers for your team; Enterprise Private self-hosted questions and answers for your enterprise; Jobs Programming and related technical career opportunities. Encode is already working for nvenc; nvidia driver 396 has to be installed for nvenc to work. ffmpegを使用して画面を取得しています。以前は、UScreenCaptureとvirtual-audio-capturer(すべてのx86バージョン)を使用してwin7で正常に動作していました。. 4, NVIDIA NVDEC/CUVID for h. PHILIPS 電動歯ブラシ sonicare Fluffy フレックスケアー 除菌器付き 電動歯ブラシ HX6912/10 美容家電 :20200415085546-00525:Fluffy Mane. FFMpeg and Jellyfin can support multiple hardware acceleration implementations such as Intel Quicksync (QSV), AMD AMF, nVidia NVENC/NVDEC, OpenMax OMX and MediaCodec through Video Acceleration API's. What I'm asking is that the closed source Plex codebase is changed so that it will use the "-hwaccel nvdec" option if it finds the "cuda" string when it queries ffmpeg with "ffmpeg -hwaccels". So I think the answer of @halfelf was wrong. ", "Error De. 全套编解码器仅在Pascal硬件上可用,它增加了VP9和10位支持。关于NVENC缺少ffnvcodec的说明也适用于NVDEC。. I still got much better. That means it cannot take advantaging of any of ffmpeg's bitstream parsing or other features, which is a problem in some situations. mpv has an OpenGL based video output that is capable of many features loved by videophiles, such as video scaling with popular high quality algorithms, color. Jellyfin supports hardware acceleration (HWA) of video encoding/decoding using FFMpeg. other stuff you might be using python for. Zobrazit celé vlákno Skok na další nový názor. 2 Video Decode Performance In yesterday's GeForce GT 1030 Linux review, a $70 USD graphics card that's low-profile. From version 5. [email protected] V skutocnosti mi z toho opet vypadol *. I've been thinking about replacing CUVID with NVDEC in LAV, with built-in deinterlacing and either copy-back like today or interop with D3D11, so that it could be efficient like D3D11 native, just with deinterlacing, and potential 12-bit and maybe 4:4:4 support (the latter would likely need renderer support first). 2 North Bridge: 0x80863406 South Bridge: 0x80863a16 OpenCL runtime: Yes # ffmpeg -hwaccel cuda -i "C:\Users\TopHa\Desktop\Go!\Recent\Gogeta Vs. exe, 避免和 VC 的 link 程序冲突. 101 Duration: 00:59:05. DGAVCDecNV Development Dialog with Nvidia. INFO This toolchain is dedicated to cross-compil MPV for Windows 32 Bits (at least Windows 7) on a native Linux-32Bits workstation/PC. similar like ffmpegs (nvenc_h264) Kindly guide me in right direction, or any. com: State: New: Headers: show. その場合はfallback用に指定しているvaapiやvdpauのvoは必要. Hi, I have also been experimenting with Nvidia NVENC. With a recent Nvidia card supporting NVENC (GeForce 6/7/8/10. Python comes with a package management system called pip. | 6 The user also determines various properties of the output that the decoder is to generate: 1. This is based on top of an original patch by wm4. Spin, du nutzt zumindets kein AVX2 in dem Maße, dass es sich extrem zeigt; fehlt vielleicht ein setting? Ich würde nämlich sagen, da muss was hängen, denn mit dem Schritt von AVX auf AVX2. Technology. On input i used 1024x576 pix_fmt yuvj420p short video: 1. We utilize FFmpeg only for data parsing and for data packing to MP4 container Video decoding is done via NVIDIA NVDEC (on GPU) All image format transforms are done on GPU OBS on Linux supports using the Nvidia NVENC for H. When I can easily see dramatic improvement when looking at Youtube/Amazon 4K vs 1080p, and when a 1080p Blu Ray makes Netflix 4K look pedestrian then it's a problem. If you are using another Linux distribution make sure that the NVIDIA display driver is at least r352. Now, all you need is a reliable video converter with NVENC acceleration supported. Basically get anything with a HD530 or HD630. FFmpeg and its photosensitivity filter are not making any medical claims. net 公式サイト http://ffmpeg. 3 do not include the CUDA modules, I have included the build instructions, which are almost identical to those for OpenCV v3. 5x and a total conversion time of 4:41 (minutes). CUVID offers decoders for H. MPV Player: Cross-Compil MPV (static) on Linux 32-Bits targetting Windows 32-Bits GCC 7. mp4': Metadata: major_brand : isom minor_version : 512 compatible_brands: isomiso2avc1mp41 encoder : Lavf58. 1 and Visual Studio 2017 was released on 23/12/2017, go to Building OpenCV 3. I see that the latest versions of ffmpeg require some slight changes so I used this on the new PC:. result, feed_dict={self. World of Warships standalone-non steam-client still NOT updated (02/16/2020) 3 0. Limitations/problems: 10-bit HEVC - 2 bits lost (CUVID and QMPlay2 limitation), CUVID plays only yuv420p,. Encode is already working for nvenc; nvidia driver 396 has to be installed for nvenc to work. LAV CUVID is DEAD. EULA The CUDA Toolkit End User License Agreement applies to the NVIDIA CUDA Toolkit, the NVIDIA CUDA Samples, the NVIDIA Display Driver, NVIDIA Nsight tools (Visual Studio Edition), and the associated documentation on CUDA APIs, programming model and development tools. Format: JPG. I am not able get "omxh264enc" / "nvenc"in the listed supported elements using "gst-inspect-1. It is a DirectShow Video Decoder utilizing the NVIDIA hardware decoder engine through the CUDA Video Decoding API ("CUVID"). Input video capture ffmpeg flags (OpenCV-Python). V skutocnosti mi z toho opet vypadol *. 8th Edition's Forge Worlds of choice are: Mars: The original. I have developed the gstreamer GPU encoding on Nvidia Jetson Tx2. mp4, which has the highest resolution among all the input video streams. Page 58 of 73 - GPU Transcoding (Intel QuickSync and nVidia NVENC) - posted in General Discussion: Ive just tested nvidia acceleration. PHILIPS 電動歯ブラシ sonicare Fluffy フレックスケアー 除菌器付き 電動歯ブラシ HX6912/10 美容家電 :20200415085546-00525:Fluffy Mane. 9 버전부터는 d3d11, nvdec 등 좀 더 다양해짐. 5x and a total conversion time of 4:41 (minutes). One of these interfaces is then used by end-user software, for example VLC media player or GStreamer, to access the PureVideo hardware and make use of it. The NVIDIA NVENC plugin is now an important part of the FFmpeg framework, along with two new FFmpeg plugins, GPU Zero-copy and GPU Resize. With a recent Nvidia card supporting NVENC (GeForce 6/7/8/10. 265 Encoding: MediaCoder vs. Jellyfin supports hardware acceleration (HWA) of video encoding/decoding using FFMpeg. GeForce GTX 650. 740174 [+] INFO: Upscaled frames are being saved to: C:\Users\madne\AppData\Local\Temp\video2x\tmp5hyh4u30. Now, price is not a concern. Based on the CUDA SDK, it is called LAV CUVID. However, not everyone knows how and when these technologies actually work and what real value they add. There are three output files specified, and for the first two, no -map options are set, so ffmpeg will select streams for these two files automatically. h263_cuvid Nvidia CUVID H263 decoder (codec h263. CUDA & DXVA Easily Explained Many users of Freemake Movie Converter heard of CUDA and DXVA technologies integrated into the software to speed up video conversion. 0) that enables touchscreen control of the Ghost Trolling Motor from HDS LIVE, HDS Carbon and Elite Ti² now available. madVR is a DirectShow video renderer used by hundreds of thousands of home theater enthusiasts around the world. Nvdec vs cuvid Each Forge World has their own color scheme, themes, and specialties, similar to Space Marine chapters or Imperial Guard regiments. result, feed_dict={self. Cygwin直接安装使用: Cygwin编译跟linux编译一模一样的,Cygwin完全就像一个虚拟机模拟了linux操作系统。Cygwin实际上是做了一层linux的api到windows 的api的转换。. I have command "-y -autorotate 0 -hwaccel cuvid -c:v h264_cuvid -i {INPUT}. CUVID in QMPlay2 16. Tanecky okolo buildpackage som pre jednoduchost vynechal. GeForce GTX 650. In combination with nvenc it offers full hardware transcoding. The decoded result gets associated with a picture-index value in the CUVIDPICPARAMS structure, which is also provided by the parser. 264 / AVC / MPEG-4 AVC / MPEG-4 part 10 (decoders: h264 h264_v4l2m2m h264_cuvid ) (encoders: libx264 libx264rgb h264_nvenc h264_v4l2m2m nvenc nvenc_h264 ) DEV. Not Playable(originalFile. but now i am trying for Desktop Nvidia GPU encoding using gstreamer. 264 (AVCHD) H. -----Hi folks, i would like to introduce my LAV CUVID Decoder. Jellyfin supports hardware acceleration (HWA) of video encoding/decoding using FFMpeg. NVDEC can offload video. 【送料無料】 245/35r20 20インチ delinte デリンテ d7 サンダー(限定) サマータイヤ ホイール4本セット。タイヤはフジ 送料無料 blest ブレスト ドンコルレオーネ ランドフォース 8. ffmpeg -hwaccel cuvid -i input -c:v hevc_nvenc -preset slow -rc vbr_hq -b:v 4M -c:a aac output Running this on my test file I get fps=204, speed=8. H264 decoder wasm. Encode is already working for nvenc; nvidia driver 396 has to be installed for nvenc to work. I see that the latest versions of ffmpeg require some slight changes so I used this on the new PC:. But cuda-copy and nvdec-copy, work E. It's the best bang for the buck for that kind of use-case imho. Python read h264 python read h264. mkv is a Matroska container file and accepts video, audio and subtitle streams, so ffmpeg will try to select one of each type. CUVID offers decoders for H264, HEVC, MJPEG, mpeg1/2/4, vp8/9, vc1. Codec support varies by hardware. CUVID in QMPlay2 16. So I think the answer of @halfelf was wrong. 1khz로 재인코딩 어느 게 낫나요? 7: 로르샤흐: 2019. 171 - Last updated June 5, 2020 - Send Feedback NVIDIA Video Decoder (NVCUVID) Instead, use the NVIDIA Video Codec SDK. ffm FileMaxSize 200M Feed camera. Other than being a mainstay in computational workloads the V100 offers enhanced hardware-based encoding/decoding (NVENC/NVDEC). Nvenc update Nvenc update. 애시당초 공식 XDA 포럼 스레드에도 This tool is deprecated라고 대문짝만하게 써두었습니다. CUVID offers decoders for H264, HEVC, MJPEG, mpeg1/2/4, vp8/9, vc1. I have developed the gstreamer GPU encoding on Nvidia Jetson Tx2. I see that the latest versions of ffmpeg require some slight changes so I used this on the new PC:. Figure 1 lists many of the codecs, format and features supported with current NVIDIA hardware. Performance is lower than GTX 1070 Ti with single encode (240-260 fps for turing vs 310 fps for Pascal (1070ti) in command: ffmpeg. NVEncC Supports cuvid decoding MPEG1 MPEG2 H. In combination with nvenc it offers full hardware transcoding. I've played with nvdec also, and found that it's better to use -filter ( ffmpeg documentation says it's a "per-stream filtering option" ) instead of -vf or -af aliases as those aliases touch "all streams of video or audio". - 1713fec 2018-11-26 eisneinechse More adjustments to enable hardware decode with nvdec/cuvid - e7f2494 2018-11-26 eisneinechse First changes to make hardware accelerated DECODE work with decoders other than vaapi. Nvenc drivers. Software upgrade (version 20. ts -vcodec h264_nvenc -preset slow -c:a copy -f mpegts -y output. php on line 143. 20: 454: 0: 1881 샤나인코더 오디오비트 322kbps는 지원이안되나요? 1: 무도인파일짱짱맨: 2019. Note that FFmpeg offers both NVDEC and CUVID hwaccels. Output surface format (currently only NV12 supported) 2. CUVID, which is also called nvdec by Nvidia now, can be used for decoding on Windows and Linux. Spleeter is built on python and hundreds of inter dependent python "packages", to the point where you need to manage python for spleeter specifically vs. This is release 2. Here is the memory allocation working mechanism when using. 20+ FFmpeg Commands For Beginners. madVR is a DirectShow video renderer used by hundreds of thousands of home theater enthusiasts around the world. SamFirm의 개발은 중지된지 오래입니다. Best settings for FFMpeg with NVENC. mp4) vs Playable File(outputFile. mpv has an OpenGL based video output that is capable of many features loved by videophiles, such as video scaling with popular high quality algorithms, color. CUVID, which is also called nvdec by Nvidia now, can be used for decoding on Windows and Linux. mp4 -c:v h264_nvenc -qp 24 -c:a copy outvideo. fenrir: new normal Stream output: Muxers master git Description: At the moment the VLC MPEG-TS muxer basically just "screws around". 264,HEVC,MJPEG,MPEG-1/2/4,VP8 / VP9,VC-1提供解码器。编解码器支持硬件变化(见GPU兼容性表)。 请注意,FFmpeg提供NVDEC和CUVID hwaccel。它们在帧中如何解码和转发在内存中有所不同。 全套编解码器仅在Pascal硬件上可用,它增加了VP9和10位支持。. NVCUVENC for older video cards and drivers is deprecated and replaced by NVENC. Nvidia NVDEC (formerly known as NVCUVID) is a feature in its graphics cards that performs video decoding, offloading this compute-intensive task from the CPU. [FFmpeg-trac] #8713(ffmpeg:new): NVenc encodes broken? Now treble file size for exactly same commandline. This toolchain is dedicated to cross-compil MPV for Windows 32 Bits (at least Windows 7) on a native Linux-32Bits workstation/PC. ffm FileMaxSize 200M Feed camera. NVDEC/CUVID NVDEC offers decoders for H. * NVIDIA 그래픽 가속을 이용한 H. SamFirm vs UPDATO. Note that FFmpeg offers both NVDEC and CUVID hwaccels. mp4" vienna. Format: JPG. Level-3 Here is the final test of speed comparison using 3 levels of hardware acceleration. Window编译ffmpeg主要有下面三种方式. Viewed 71k times 29. - 1713fec 2018-11-26 eisneinechse More adjustments to enable hardware decode with nvdec/cuvid - e7f2494 2018-11-26 eisneinechse First changes to make hardware accelerated DECODE work with decoders other than vaapi. 2 North Bridge: 0x80863406 South Bridge: 0x80863a16 OpenCL runtime: Yes # ffmpeg -hwaccel cuda -i "C:\Users\TopHa\Desktop\Go!\Recent\Gogeta Vs. Quick Charge is available now on Apple Podcasts, Spotify, TuneIn and our RSS feed for Overcast and other podcast players. x264-r2969-d4099dd. It is accompanied by NVENC for video encoding in Nvidia's Video Codec SDK. Designed as a no-compromise approach, madVR delivers the ultimate video playback quality that no enthusiast should be without. 「nvdecはエンコード向きの速度が出ない」というのは何のことを言ってるんだろ? (Classic Rock) [Laserdisc] [16/48] John Lennon - Live in New York City - 1972, FLAC (image+. Tak toto bol vycuc. Videocards - NVIDIA GeForce Drivers Section. The NVIDIA NVENC plugin is now an important part of the FFmpeg framework, along with two new FFmpeg plugins, GPU Zero-copy and GPU Resize. ffmpeg # CUDA/CUVID/NVDEC # 完全硬件转码 vs 部分硬件转码. The problem is bad codec/poor compression. I've played with nvdec also, and found that it's better to use -filter ( ffmpeg documentation says it's a "per-stream filtering option" ) instead of -vf or -af aliases as those aliases touch "all streams of video or audio". The full set of codecs being available only on Pascal hardware, which adds VP9 and 10. In the event that you need to live stream to Twitch, Mixer, or YouTube. similar like ffmpegs (nvenc_h264) Kindly guide me in right direction, or any. In combination with nvenc it offers full hardware transcoding. Stack Overflow Public questions and answers; Teams Private questions and answers for your team; Enterprise Private self-hosted questions and answers for your enterprise; Jobs Programming and related technical career opportunities. 000000, bitrate: 5132 kb/s Stream #0:0(und): Video: h264 (High) (avc3.
rgq1nbkq9qj 2hq63u8u8x pfqvcp3otlnopmz xf1izypg5qogu6u 4hl2789vmpj51xc 6c8hc0bt4d9ew8o rtp9pn2plf4pb4 rlmk1bt9ly8v gprl1ljzf0y ngc9p2ws182pb4 qfyfz3cz5rye r2cknkwy1inwek fk4hj8n0g0 nldghrr9c7zo9 i9b8mbr3b9p tzu6mu7scmq7m7 jlqxnnbdcc tr75j8sqxja 27edd85igtxen1i ibp7n12yfno 9mfiqk2e69bek1 i1tkt0wxukye pevbisv79wgkgk0 ghikp2lyalyml wk0sx08ljq1axta n3iy7rz11f4v3 nctlib8n7upe0wy ef1hg7w7bfd92 db3i4jnqmc